Присоединяйся

Регистрация

Danver de lauder

Микс: Voyager

  • Voyager
    Микс Spacesynth
    6 +1 0 +1 Добавить В очередь 54:36 101 Скачать
    • 54:36 Продолжительность:
      101 Прослушиваний:
      6 Скачиваний:
      15 ноября 2022 Загружен:
      320 kpbs Качество:
    • Скопировать ссылку

Трек-лист

  • PERFORMER "D.j. Danver de lauder"
  • TITLE "The Voyager"
  • TRACK 01 AUDIO
  • TITLE "Structure"
  • PERFORMER "The Art Of Noise"
  • INDEX 01 00:02:31
  • TRACK 02 AUDIO
  • TITLE "Last Night On Earth"
  • PERFORMER "Empathy Test"
  • INDEX 01 01:12:23
  • TRACK 03 AUDIO
  • TITLE "Sunlight In Your Eyes"
  • PERFORMER "Midnight Drift"
  • INDEX 01 03:48:69
  • TRACK 04 AUDIO
  • TITLE "Show Him Out"
  • PERFORMER "Twilight Ritual"
  • INDEX 01 06:19:06
  • TRACK 05 AUDIO
  • TITLE "Moonflower"
  • PERFORMER "Lia Mice"
  • INDEX 01 08:08:27
  • TRACK 06 AUDIO
  • TITLE "Broken"
  • PERFORMER "Subp Yao"
  • INDEX 01 10:48:33
  • TRACK 07 AUDIO
  • TITLE "Waiting"
  • PERFORMER "Bt-84"
  • INDEX 01 13:41:51
  • TRACK 08 AUDIO
  • TITLE "Heart Reset"
  • PERFORMER "Ovend"
  • INDEX 01 16:40:46
  • TRACK 09 AUDIO
  • TITLE "Here Is The Place"
  • PERFORMER "Empathy Test"
  • INDEX 01 20:03:01
  • TRACK 10 AUDIO
  • TITLE "Thicker Than Water"
  • PERFORMER "Alex Medina"
  • INDEX 01 23:14:58
  • TRACK 11 AUDIO
  • TITLE "Eyes Lips"
  • PERFORMER "B.Visible"
  • INDEX 01 26:45:66
  • TRACK 12 AUDIO
  • TITLE "Open Up"
  • PERFORMER "Potй"
  • INDEX 01 30:20:33
  • TRACK 13 AUDIO
  • TITLE "Hope For Me"
  • PERFORMER "Empathy Test"
  • INDEX 01 33:55:18
  • TRACK 14 AUDIO
  • TITLE "Coastline"
  • PERFORMER "Midnight Drift"
  • INDEX 01 36:54:33
  • TRACK 15 AUDIO
  • TITLE "Delorean Dreamers"
  • PERFORMER "Arkle"
  • INDEX 01 39:41:29
  • TRACK 16 AUDIO
  • TITLE "Kintsugi"
  • PERFORMER "Moon"
  • INDEX 01 43:34:66
  • TRACK 17 AUDIO
  • TITLE "Demons"
  • PERFORMER "Empathy Test"
  • INDEX 01 47:30:13
  • TRACK 18 AUDIO
  • TITLE "Starlight"
  • PERFORMER "Midnight Drift/iimber"
  • INDEX 01 50:50:19
Стиль: Spacesynth
Записан: 05 ноября 2022
Добавлен: 15 ноября 2022, 22:54
Комментарии
Зарегистрируйтесь Или войдите на сайт чтобы оставить комментарий