Присоединяйся

Регистрация

Danver de lauder

Микс: Party dance

  • Party dance
    Микс Euro-Dance
    6 +1 0 +1 Добавить В очередь 1:02:45 172 Скачать
    • 1:02:45 Продолжительность:
      172 Прослушиваний:
      15 Скачиваний:
      18 апреля 2024 Загружен:
      195 kpbs Качество:
      1 плейлист Добавлен в:
    • Скопировать ссылку

Трек-лист

  • TRACK 01 AUDIO
  • TITLE "Tonight"
  • PERFORMER "12. Tracy Anne"
  • INDEX 01 00:02:31
  • TRACK 02 AUDIO
  • TITLE "Magic Flight"
  • PERFORMER "2 Fabiola"
  • INDEX 01 05:18:39
  • TRACK 03 AUDIO
  • TITLE "3-O-Matic - Hand In Hand (Radio Mix - Video Version)"
  • PERFORMER ""
  • INDEX 01 08:56:39
  • TRACK 04 AUDIO
  • TITLE "07-Day By Day (Sun Version) (1995)"
  • PERFORMER "Angel Ice"
  • INDEX 01 12:51:50
  • TRACK 05 AUDIO
  • TITLE "Survivor"
  • PERFORMER "ANTONINA"
  • INDEX 01 17:38:34
  • TRACK 06 AUDIO
  • TITLE "I Feel The Passion (Euro Club Mix) +!!!!"
  • PERFORMER "Betty Blue"
  • INDEX 01 23:38:18
  • TRACK 07 AUDIO
  • TITLE "Sugardaddy Radio Mix)"
  • PERFORMER "Bingoboys"
  • INDEX 01 29:29:44
  • TRACK 08 AUDIO
  • TITLE "Reach The Sky"
  • PERFORMER "Blue Bamboo"
  • INDEX 01 33:12:69
  • TRACK 09 AUDIO
  • TITLE "Singin Happy"
  • PERFORMER "Blue Heart"
  • INDEX 01 38:27:48
  • TRACK 10 AUDIO
  • TITLE "C & C Music Factory Vs. Loft—Gonna Make You Sweat (Martik C Rmx) "
  • PERFORMER ""
  • INDEX 01 43:10:74
  • TRACK 11 AUDIO
  • TITLE "Over and over
  • PERFORMER "Captain Hollywood"
  • INDEX 01 46:49:14
  • TRACK 12 AUDIO
  • TITLE "Just tell me why"
  • PERFORMER "Cassandra J"
  • INDEX 01 50:27:31
  • TRACK 13 AUDIO
  • TITLE "Run Away (Radio Edit)"
  • PERFORMER "Co.Ro. feat. Lyen"
  • INDEX 01 53:44:24
  • TRACK 14 AUDIO
  • TITLE "Happy Generation [Extended Mix]
  • PERFORMER "Critical Mass"
  • INDEX 01 57:17:36

Подробнее

Комментарии
Зарегистрируйтесь Или войдите на сайт чтобы оставить комментарий